Loading...
Error

Фантастические твари и где они обитают / Fantastic Beasts and Where to Find Them (Дэвид Йейтс) [2016 г., фэнтези, приключения, семейный, BDRip] Dub

Статистика раздачи
Размер:  1,37 GB   |    Зарегистрирован:  4 года 3 месяца   |    Скачан:  30 раз

Полного источника не было: 1 месяц 10 дней

Сидов:  0  |  0 KB/s  ]   Личеров:  0  |  0 KB/s  ]

* - сиды/пиры с внешних источников

   
 
Автор Сообщение

makkol Пол:Муж

25-Фев-2017 10:10

Фантастические твари и где они обитают
Fantastic Beasts and Where to Find Them


Год выпуска: 2016
Жанр: фэнтези, приключения, семейный
Производство: Великобритания , США [Cinesite, Double Negative, Framestore]
Режиссер: Дэвид Йейтс
В ролях: Эдди Редмэйн, Кэтрин Уотерстон, Дэн Фоглер, Элисон Судол, Колин Фаррелл, Кармен Эджого, Эзра Миллер, Саманта Мортон, Рон Перлман, Джон Войт, Доминик Типпер
Сюжет фильма:
1926 год. Зоолог-волшебник Ньют Саламандер нелегально вывозит в чемодане редких магических зверей, чтобы переселить оставшихся особей в более подходящую среду обитания и, тем самым, сохранить их как вид. Но при очередном прохождении нью-йоркской таможни что-то идет не так и несколько опасных существ оказываются на воле. Саламандеру необходимо как можно быстрее упаковать разбежавшийся зверинец обратно в чемодан, ведь на его поиски уже выдвинулись местные волшебные власти. Дело осложняется назревающим конфликтом между магами и не-магами (американское название маглов), за которым стоит тайное общество анархистов-радикалов "Новый Салем". Его адепты вынашивают жуткий план по честному отъему волшебных палочек во всем мире.

  • Мировая премьера: 8 ноября 2016
  • Российская премьера: 17 ноября 2016


Качество видео: BDRip

Продолжительность: 02:12:52
Формат: AVI
Видео: XviD, 720x304 (2.35:1), 23.976 fps, 1015 kbps
Аудио: русский, дублированный (лицензия), AC3 5.1, 48 kHz, 448 kbps

Код:

Format                                   : AVI
Format/Info                              : Audio Video Interleave
File size                                : 1.37 GiB
Duration                                 : 2h 12mn
Overall bit rate                         : 1 473 Kbps
Writing application                      : VirtualDubMod 1.5.10.2 (build 2540/release)
Writing library                          : VirtualDubMod build 2540/release

Video
ID                                       : 0
Format                                   : MPEG-4 Visual
Format profile                           : Advanced [email protected]
Format settings, BVOP                    : 2
Format settings, QPel                    : No
Format settings, GMC                     : No warppoints
Format settings, Matrix                  : Default (MPEG)
Codec ID                                 : XVID
Codec ID/Hint                            : XviD
Duration                                 : 2h 12mn
Bit rate                                 : 1 015 Kbps
Width                                    : 720 pixels
Height                                   : 304 pixels
Display aspect ratio                     : 2.35:1
Frame rate                               : 23.976 fps
Color space                              : YUV
Chroma subsampling                       : 4:2:0
Bit depth                                : 8 bits
Scan type                                : Progressive
Compression mode                         : Lossy
Bits/(Pixel*Frame)                       : 0.194
Stream size                              : 965 MiB (69%)
Writing library                          : XviD 1.2.1 (UTC 2008-12-04)

Audio
ID                                       : 1
Format                                   : AC-3
Format/Info                              : Audio Coding 3
Mode extension                           : CM (complete main)
Format settings, Endianness              : Big
Codec ID                                 : 2000
Duration                                 : 2h 12mn
Bit rate mode                            : Constant
Bit rate                                 : 448 Kbps
Channel(s)                               : 6 channels
Channel positions                        : Front: L C R, Side: L R, LFE
Sampling rate                            : 48.0 KHz
Bit depth                                : 16 bits
Compression mode                         : Lossy
Stream size                              : 426 MiB (30%)
Alignment                                : Split accross interleaves
Interleave, duration                     : 42 ms (1.00 video frame)
Interleave, preload duration             : 500 ms
picpicpicpicpic
Для увеличения картинки щелкните мышкой по превью

Этот торрент недоступен для скачивания без регистрации, однако доступен по публичной magnet-ссылке (источники с публичных трекеров). Перед использованием ссылки прочтите, пожалуйста Пользовательское соглашение, а также как можно дольше оставайтесь на раздаче! Для того, чтобы скачать сам торрент-файл (который видит больше источников), а также для того, чтобы поблагодарить релизера, вам необходимо зарегистрироваться. Если регистрироваться лень - вы можете также попробовать скачать релиз по нашим партнерским ссылкам ниже. Кроме того, зарегистрированным пользователям не показывается всплывающая реклама при скачивании.

[underverse.me].t78853.torrent
Трекер: Зарегистрирован   [ 25.02.2017 10:10 ]  

Статус: проверено (by makkol at 25.02.2017 10:14)
Поблагодарили: пока никто не поблагодарил...
Тип торрента: публичный - доступные источники с открытых трекеров: 
Размер: 1,37 GB (занимает 0,31 DVDR, для записи нужно 1 болванка DVDR/RW)
 
 
Похожие темы
Форум Тема Автор Торрент Отв. Посл. сооб.
Зарубежное кино [DVDRip, Low-Res HDRip, и т.д.] Фантастическая четверка / Fantastic Four (Тим Стори / Tim Story) [2005 г., фантастика, боевик, фэнтези, приключения, BDRip] Dub kid8177
2 | 0

5 | 2786

16

27.01.2016 19:23

Зарубежное кино [DVDRip, Low-Res HDRip, и т.д.] Фантастические твари и где они обитают / Fantastic Beasts and Where to Find Them (Дэвид Йейтс) [2016 г., фэнтези, приключения, семейный, BDRip] Dub makkol
3 | 0

0 | 4295

107

25.02.2017 10:19

Зарубежное кино [DVDRip, Low-Res HDRip, и т.д.] Фантастическая четверка / Fantastic Four (Джош Транк / Josh Trank) [2015 г., фантастика, боевик, приключения, HDRip] Dub 90ytr90
6 | 0

0 | 1543

15

26.01.2016 18:53

Зарубежное кино [DVDRip, Low-Res HDRip, и т.д.] Фантастическая четверка / Fantastic Four (Джош Транк / Josh Trank) [2015 г., фантастика, боевик, приключения, BDRip] Dub + Original (Eng) 90ytr90
0 | 0

0 | 1407

3

26.01.2016 19:30

Зарубежное кино [DVDRip, Low-Res HDRip, и т.д.] Фантастическая четверка / Fantastic Four (Джош Транк / Josh Trank) [2015 г., фантастика, боевик, приключения, BDRip-AVC] Dub + Sub (Rus) 90ytr90
1 | 0

0 | 1426

8

26.01.2016 19:38

Зарубежное кино [DVDRip, Low-Res HDRip, и т.д.] Фантастическая четверка / Fantastic Four (Джош Транк / Josh Trank) [2015 г., фантастика, боевик, приключения, BDRip-AVC] 2xDub (Rus, Ukr) + Original (Eng) + Subs 90ytr90
3 | 0

0 | 1551

7

26.01.2016 19:51

Зарубежное кино [DVDRip, Low-Res HDRip, и т.д.] Фантастическая четверка: Вторжение Серебряного серфера / 4: Rise of the Silver Surfer (Тим Стори / Tim Story) [2007 г., боевик, фантастика, приключения, фэнтези, BDRip] Dub 90ytr90
3 | 2

0 | 1841

18

28.01.2016 19:02

T Зарубежное кино [DVDRip, Low-Res HDRip, и т.д.] Фантастическая любовь и где ее найти / This Beautiful Fantastic (Саймон Эбауд) [2016 г., фэнтези, драма, мелодрама, комедия, WEB-DLRip] MVO (iTunes) makkol
5 | 0

0 | 1475

22

10.05.2017 14:23

Зарубежное кино [DVDRip, Low-Res HDRip, и т.д.] Фантастические твари: Преступления Грин-де-Вальда / Fantastic Beasts: The Crimes of Grindelwald (Дэвид Йейтс / David Yates) [2018 г., фэнтези, приключения, BDRip-AVC] Dub + Sub (Rus) 90ytr90
11 | 0

0 | 1427

25

09.03.2019 03:53

Зарубежное кино [DVDRip, Low-Res HDRip, и т.д.] Фантастические твари: Преступления Грин-де-Вальда / Fantastic Beasts: The Crimes of Grindelwald (Дэвид Йейтс / David Yates) [2018 г., фэнтези, приключения, BDRip-AVC] Dub + Original (Eng) + Sub (Rus,... 90ytr90
1 | 0

0 | 1298

17

09.03.2019 03:48


Яндекс.Метрика powered by Sphinx


В Н И М А Н И Е
Сайт не распространяет и не хранит электронные версии произведений, а лишь бесплатно и без коммерческой выгоды (не требуя взамен платы,
SMS и т.д.) предоставляет доступ к создаваемому пользователями каталогу ссылок на торрент-файлы, которые содержат только списки хеш-сумм.
Убедительная просьба с жалобами обращаться напрямую к пользователю, разместившему торрент файл.

Вверх